PEE MAK PRAKANONG (2013) HDRip 720p x264 AC3 Thaisub-Tình Người Duyên Ma 2013














PEE MAK PRAKANONG (2013)





Code:
Format                                   : Matroska
Format version                           : Version 2
File size                                : 3.10 GiB
Duration                                 : 1h 47mn
Overall bit rate                         : 4 129 Kbps
Encoded date                             : UTC 2013-07-02 18:47:58
Writing application                      : mkvmerge v3.4.0 ('Rapunzel') built on May 15 2010 09:38:20
Writing library                          : libebml v0.8.0 + libmatroska v0.9.0


Video
ID                                       : 1
Format                                   : AVC
Format/Info                              : Advanced Video Codec
Format profile                           : High@L4.1
Format settings, CABAC                   : Yes
Format settings, ReFrames                : 5 frames
Codec ID                                 : V_MPEG4/ISO/AVC
Duration                                 : 1h 47mn
Bit rate                                 : 3 677 Kbps
Width                                    : 1 280 pixels
Height                                   : 544 pixels
Display aspect ratio                     : 2.35:1
Frame rate mode                          : Constant
Frame rate                               : 25.000 fps
Color space                              : YUV
Chroma subsampling                       : 4:2:0
Bit depth                                : 8 bits
Scan type                                : Progressive
Bits/(Pixel*Frame)                       : 0.211
Stream size                              : 2.70 GiB (87%)
Writing library                          : x264 core 65 r999kMod cc51047
Encoding settings                        : cabac=1 / ref=5 / deblock=1:0:0 / analyse=0x3:0x133 / me=umh / subme=7 / psy_rd=1.0:0.0 / mixed_ref=1 / me_range=16 / chroma_me=1 / trellis=2 / 8x8dct=1 / cqm=0 / deadzone=21,11 / chroma_qp_offset=-2 / threads=16 / thread_queue=16 / nr=0 / decimate=1 / mbaff=0 / bframes=5 / b_pyramid=0 / b_adapt=1 / b_bias=0 / direct=3 / wpredb=1 / keyint=250 / keyint_min=25 / scenecut=40(pre) / rc=2pass / bitrate=3677 / ratetol=1.0 / qcomp=0.60 / qpmin=10 / qpmax=51 / qpstep=4 / cplxblur=20.0 / qblur=0.5 / ip_ratio=1.40 / pb_ratio=1.30 / aq=1:1.00
Language                                 : Thai
Default                                  : Yes
Forced                                   : No


Audio
ID                                       : 2
Format                                   : AC-3
Format/Info                              : Audio Coding 3
Mode extension                           : CM (complete main)
Format settings, Endianness              : Big
Codec ID                                 : A_AC3
Duration                                 : 1h 47mn
Bit rate mode                            : Constant
Bit rate                                 : 448 Kbps
Channel(s)                               : 6 channels
Channel positions                        : Front: L C R, Side: L R, LFE
Sampling rate                            : 48.0 KHz
Bit depth                                : 16 bits
Compression mode                         : Lossy
Stream size                              : 344 MiB (11%)
Title                                    : [THAI AC3 FROM DVD MASTER]
Language                                 : Thai
Default                                  : Yes
Forced                                   : No


Text
ID                                       : 3
Format                                   : VobSub
Muxing mode                              : zlib
Codec ID                                 : S_VOBSUB
Codec ID/Info                            : The same subtitle format used on DVDs
Title                                    : [SUB THAI FROM DVD MASTER]
Language                                 : Thai
Default                                  : Yes
Forced                                   : No


In the Rattanakosin Kingdom, Mak (Mario Maurer) leaves his pregnant wife Nak (Davika Hoorne) to join the war and meets four soldiers who become his best friends. During this time, his wife Nak struggles to give birth to their baby.
When the war ends, Mak invites his friends to visit Phra Khanong and meet his beautiful wife Nak. Meanwhile, rumors fly around town that Nak is a ghost. His four friends and villagers trying to tell Mak that his wife is already dead.





















Code:
http://www.fshare.vn/file/TM2PFQZT9T




Code:
http://subscene.com/subtitles/pee-mak-phrakanong/vietnamese/756035






Upload By: Nguyen Doan Ket