White House Down 2013 720p TS XviD-THC – Giải cứu Nhà Trắng














White House Down 2013





Code:
Format : AVI
Format/Info : Audio Video Interleave
Format profile : OpenDML
File size : 2.64 GiB
Duration : 2h 5mn
Overall bit rate : 3 011 Kbps
Writing library : VirtualDub build 35390/release


Video
ID : 0
Format : MPEG-4 Visual
Format profile : Advanced Simple@L5
Format settings, BVOP : Yes
Format settings, QPel : No
Format settings, GMC : No warppoints
Format settings, Matrix : Default (H.263)
Muxing mode : Packed bitstream
Codec ID : XVID
Codec ID/Hint : XviD
Duration : 2h 5mn
Bit rate : 2 808 Kbps
Width : 1 280 pixels
Height : 544 pixels
Display aspect ratio : 2.35:1
Frame rate : 24.000 fps
Color space : YUV
Chroma subsampling : 4:2:0
Bit depth : 8 bits
Scan type : Progressive
Bits/(Pixel*Frame) : 0.168
Stream size : 2.46 GiB (93%)
Writing library : XviD 1.2.1 (UTC 2008-12-04)


Audio
ID : 1
Format : MPEG Audio
Format version : Version 1
Format profile : Layer 3
Mode : Joint stereo
Mode extension : MS Stereo
Codec ID : 55
Codec ID/Hint : MP3
Duration : 2h 5mn
Bit rate mode : Constant
Bit rate : 192 Kbps
Channel(s) : 2 channels
Sampling rate : 48.0 KHz
Stream size : 172 MiB (6%)
Alignment : Split accross interleaves
Interleave, duration : 42 ms (1.00 video frame)
Interleave, preload duration : 500 ms
Writing library : LAME3.98.2


Cái tên đã trực tiếp nói lên nội dung chính, White House Down sẽ mang đến những hình ảnh đầy khói bụi, tiếng bom mìn, súng nổ khi Nhà Trắng từng bước bị bắn nát trước con mắt chứng kiến của những người dân đang hoảng loạn. Từ trước tới nay cảnh Nhà Trắng bị tấn công không thường xuyên được lên màn ảnh hoặc chỉ trong khoảng thời gian rất ngắn, bởi vậy khi White House Down ra mắt, bộ phim chắc chắn sẽ gây sự tò mò chú ý của người xem.






























Code:
http://www.fshare.vn/file/TG7V5FYVYT




Code:
http://subscene.com/subtitles/white-house-down/vietnamese/755602






Upload By: Nguyen Doan Ket